#TITLE:Days of Sodom;
#SUBTITLE:By young_editer@hotmail.com;
#ARTIST:Dismal Euphony;
#TITLETRANSLIT:;
#SUBTITLETRANSLIT:;
#ARTISTTRANSLIT:;
#CREDIT:;
#BANNER:logo-bn.gif;
#BACKGROUND:765_photo-bg.jpg;
#LYRICSPATH:;
#CDTITLE:Nepex-Chart.bmp;
#MUSIC:Dismal Euphony (Days of Sodom).mp3;
#OFFSET:0.040;
#SAMPLESTART:99.740;
#SAMPLELENGTH:12.000;
#SELECTABLE:YES;
#BPMS:0.000=147.960,272.000=86.000,273.000=172.000,466.000=147.960,593.000=171.920,820.000=42.980;
#STOPS:;
#BGCHANGES:;

//---------------dance-single - Melodic Black Metal----------------
#NOTES:
     dance-single:
     Melodic Black Metal:
     Hard:
     13:
     1.000,1.000,1.000,1.000,1.000:  // measure 1
0000
0000
0000
0000
0000
0000
0000
0000
0000
0000
0000
0000
0000
0000
0000
0000
0100
0010
1001
0000
0101
0000
0011
0000
,  // measure 2
2200
0000
0000
0000
0000
0000
0000
0000
0000
0000
0000
0000
0000
0000
0000
0000
0000
0000
0000
0000
0000
0000
0000
0000
0000
0000
0000
0000
0000
0000
0000
0000
0000
0000
0000
0000
0000
0000
0000
0000
0000
0000
0000
0000
0000
0300
0000
0000
0220
0000
0000
0000
0000
0000
0000
0000
0000
0000
0000
0000
0000
0000
0000
0000
0000
0000
0000
0000
0000
0000
0000
0000
0000
0000
0000
0000
0000
0000
0000
0000
0000
0000
0000
0000
0000
0000
0000
0000
0000
0000
0000
0000
0000
0000
0000
0000
0000
0000
0000
0000
0000
0000
0000
0000
0000
0000
0000
0000
0000
0000
0000
0000
0000
0000
0000
0000
0000
0000
0000
0000
0000
0000
0000
0000
0000
0000
0000
0000
0001
0000
0000
0000
0000
0000
0000
0000
0001
0000
0000
0000
0000
0000
0000
0000
3331
0000
0000
0000
0000
0000
0000
0000
0000
0000
0000
0000
0000
0000
0000
0000
0101
0000
0000
0000
0000
0000
0000
0000
0000
0000
0000
0000
0000
0000
0000
0000
0011
0000
0000
0000
0000
0000
0000
0000
0000
0000
0000
0000
0000
0000
0000
0000
,  // measure 3
1020
0000
0000
0000
0031
0100
0010
0100
0001
0010
0100
0000
0010
0100
1000
0000
,  // measure 4
0022
0033
2200
3300
0220
0330
2020
3030
,  // measure 5
0202
0000
0000
0303
0000
0000
2200
0000
0000
3300
0000
0000
0202
0000
0000
0303
0000
0000
2002
0000
0000
3003
0202
0000
,  // measure 6
2020
0000
0000
0000
0000
0000
0000
0000
3030
0000
0000
0000
0000
0000
0000
0300
0223
0000
0000
0000
0000
0000
0000
0000
0330
0000
0000
0000
0000
0000
0000
0000
2200
0000
0000
0000
0000
0000
0000
0000
3300
0000
0000
0000
0000
0000
0000
0000
0202
0000
0000
0000
0000
0000
0000
0000
0303
0000
0000
0000
0000
0000
0000
0000
,  // measure 7
0022
0033
0220
0330
2002
3003
0202
0303
,  // measure 8
2020
0000
0000
3030
0110
0000
0101
0000
0011
0000
1100
0000
0220
0000
0000
0000
1331
0000
1010
0000
0101
0000
0110
0000
,  // measure 9
0202
0000
0000
0303
0000
0000
0220
0000
0000
0330
0000
0000
2002
0000
0000
3003
0000
0000
2200
0000
0000
3300
0022
0000
,  // measure 10
2200
0000
0000
0000
0000
0000
0000
0000
3300
0000
0000
0000
0000
0000
0000
0030
2023
0000
0000
0000
0000
0000
0000
0000
3030
0000
0000
0000
0000
0000
0000
0000
0202
0000
0000
0000
0000
0000
0000
0000
0303
0000
0000
0000
0000
0000
0000
0000
0022
0000
0000
0000
0000
0000
0000
0000
0033
0000
0000
0000
0000
0000
0000
0000
,  // measure 11
2002
3003
2200
3300
0220
0330
2020
3030
,  // measure 12
2200
0000
0000
3300
0100
0000
0022
0000
0000
0033
0000
0000
0220
0000
0000
0330
0100
0000
2020
0000
0001
3030
0000
0000
,  // measure 13
0002
0000
0100
2013
0001
0000
3020
0000
1000
0231
0010
0000
,  // measure 14
2300
0000
0001
3120
1000
0000
0032
0000
0010
1023
0100
0000
,  // measure 15
2030
0000
0010
3201
1000
0000
0302
0000
0010
1023
0001
0000
,  // measure 16
0230
0000
0001
1320
1000
0101
0032
0000
1000
0123
0100
1001
,  // measure 17
0032
0000
0000
0000
0000
0000
0000
0000
0000
0000
0000
0000
0000
0000
0000
0000
0000
0000
0000
0000
0000
0000
0000
0000
0000
0000
0000
0000
0000
0000
0000
0000
1000
0000
0000
0000
0000
0000
0000
0000
0000
0000
0000
0000
0000
0003
0000
0000
0021
0000
0000
0000
0000
0000
0000
0000
0000
0000
0000
0000
0000
0000
0000
0000
0100
0000
0000
0000
0000
0000
0000
0000
0000
0000
0000
0000
0000
0000
0000
0000
0000
0000
0000
0000
0000
0000
0000
0000
0000
0000
0000
0000
0000
0000
0000
0000
0032
0000
0000
0000
0000
0000
0000
0000
0000
0000
0000
0000
0000
0000
0000
0000
0000
0000
0000
0000
0000
0000
0000
0000
0000
0000
0000
0000
0000
0000
0000
0000
0010
0000
0000
0000
0000
0000
0000
0000
0000
0000
0000
0000
0000
0000
0000
0000
2013
0000
0000
0000
0000
0000
0000
0000
0000
0000
0000
0000
0000
0000
0000
0000
0100
0000
0000
0000
0000
0000
0000
0000
0000
0000
0000
0000
0000
0000
0000
0000
0000
0000
0000
0000
0000
0000
0000
0000
0000
0000
0000
0000
0000
0000
0000
0000
,  // measure 18
3200
0000
1000
1320
0001
0000
0230
0000
1000
0321
0100
0000
,  // measure 19
0032
0000
1000
2013
0001
0000
3200
0000
0001
1320
0100
0000
,  // measure 20
0230
0000
0000
0000
0000
0000
0000
0000
0000
0000
0000
0000
0000
0000
0000
0000
0000
0000
0000
0000
0000
0000
0000
0000
0000
0000
0000
0000
0000
0000
0000
0000
1000
0000
0000
0000
0000
0000
0000
0000
0000
0000
0000
0000
0000
0000
0000
0000
0312
0000
0000
0000
0000
0000
0000
0000
0000
0000
0000
0000
0000
0000
0000
0000
0100
0000
0000
0000
0000
0000
0000
0000
0000
0000
0000
0000
0000
0000
0000
0000
0000
0000
0000
0000
0000
0000
0000
0000
0000
0000
0000
0000
0000
0000
0000
0000
2003
0000
0000
0000
0000
0000
0000
0000
0000
0000
0000
0000
0000
0000
0000
0000
0000
0000
0000
0000
0000
0000
0000
0000
0000
0000
0000
0000
0000
0000
0000
0000
0010
0000
0000
0000
0000
0000
0000
0000
0000
0000
0000
0000
0000
3000
0000
0000
1020
0000
0000
0000
0000
0000
0000
0000
0000
0000
0000
0000
0000
0000
0000
0000
0100
0000
0000
0000
0000
0000
0000
0000
0000
0000
0000
0000
0000
0000
0000
0000
1001
0000
0000
0000
0000
0000
0000
0000
0000
0000
0000
0000
0000
0000
0000
0000
,  // measure 21
0230
0000
1000
0321
0100
0000
2030
0000
0100
3120
0100
0000
,  // measure 22
2030
0000
0100
3021
0100
0000
0230
0000
0001
1320
0100
0000
,  // measure 23
0032
0000
1000
0123
1000
0000
2030
0000
0010
3021
0100
0000
,  // measure 24
0230
0000
0000
0000
0000
0000
0000
0000
0000
0000
0000
0000
0000
0000
0000
0000
0000
0000
0000
0000
0000
0000
0000
0000
0000
0000
0000
0000
0000
0000
0000
0000
0001
0000
0000
0000
0000
0000
0000
0000
0000
0000
0000
0000
0000
0000
0000
0000
1320
0000
0000
0000
0000
0000
0000
0000
0000
0000
0000
0000
0000
0000
0000
0000
0100
0000
0000
0000
0000
0000
0000
0000
0000
0000
0000
0000
0000
0000
0000
0000
1001
0000
0000
0000
0000
0000
0000
0000
0000
0000
0000
0000
0000
0000
0000
0000
0230
0000
0000
0000
0000
0000
0000
0000
0000
0000
0000
0000
0000
0000
0000
0000
0000
0000
0000
0000
0000
0000
0000
0000
0000
0000
0000
0000
0000
0000
0000
0000
1000
0000
0000
0000
0000
0000
0000
0000
0000
0000
0000
0000
0000
0300
0000
0000
0120
0000
0000
0000
0000
0000
0000
0000
0000
0000
0000
0000
0000
0000
0000
0000
0001
0000
0000
0000
0000
0000
0000
0000
0000
0000
0000
0000
0000
0000
0000
0000
1100
0000
0000
0000
0000
0000
0000
0000
0000
0000
0000
0000
0000
0000
0000
0000
,  // measure 25
2030
0000
0001
3120
1000
0000
0032
0000
0010
1023
0100
0000
,  // measure 26
0032
0000
1000
0213
0001
0000
2300
0000
0010
3021
1000
0000
,  // measure 27
0032
0000
0010
1023
1000
0000
2030
0000
0100
3021
0001
0000
,  // measure 28
1030
0000
0001
0010
0100
0010
1000
0000
0010
1000
0000
0100
,  // measure 29
0011
0100
0011
1000
0011
0011
0011
0011
0011
0011
1000
0011
,  // measure 30
0011
0100
0011
0011
0011
0011
0011
1000
0011
0011
0011
0011
,  // measure 31
0011
0011
0011
0011
0100
0011
0011
1000
0011
0011
0011
0011
,  // measure 32
0011
1000
0110
1000
0110
0001
0110
1000
0110
0001
1100
1100
,  // measure 33
1100
0001
1100
1100
1100
1100
1100
0010
1100
1100
1100
1100
,  // measure 34
1100
1100
1100
1100
0010
1100
1100
0001
1100
1100
0010
1100
,  // measure 35
1100
0001
1100
1100
1100
1100
1100
0010
1100
1100
0001
1100
,  // measure 36
1100
0010
0100
0010
1000
0100
0010
0100
0010
0001
0100
1000
,  // measure 37
0220
0001
1000
1331
0100
1001
1000
0100
0001
1100
0010
1100
,  // measure 38
0202
0000
0010
0303
0100
0000
0022
0000
1000
0033
0100
0000
2002
0000
0010
3003
0001
0000
0220
0000
1000
0330
0100
0000
,  // measure 39
2020
0000
0001
3030
0100
0000
0202
0000
0010
0303
0100
0000
0022
0000
1000
0033
0100
0000
2200
0000
0010
3300
0100
0000
,  // measure 40
2020
0000
0001
3030
0100
0000
0220
0000
1000
0330
0100
0000
2200
0000
0010
3300
0100
0000
2020
0000
0001
3030
0100
0000
,  // measure 41
2002
0000
0010
3003
1000
0000
0202
0000
0010
0303
0100
0000
0022
0000
1000
0033
0100
0000
0220
0000
0001
0330
0100
0000
,  // measure 42
2002
0000
0010
3003
0100
0000
2020
0000
0001
3030
0100
0000
0202
0000
1000
0303
0100
0000
2002
0000
0100
3003
1000
0000
,  // measure 43
0220
0000
0001
0330
1000
0000
0022
0000
0100
0033
0001
0000
2200
0000
0010
3300
0001
0000
2020
0000
0100
3030
0010
0000
,  // measure 44
2002
0000
0100
3003
0010
0000
0022
0000
1000
0033
0100
0000
2200
0000
0001
3300
1000
0000
0220
0000
0001
0330
0100
0000
,  // measure 45
0022
0000
1000
0033
0100
0000
2200
0000
0001
3300
0100
0000
2020
0000
0001
3030
1000
0000
0202
0000
0010
0303
1000
0000
,  // measure 46
2002
0000
0010
3003
0001
0000
0202
0000
1000
0303
0010
0000
0022
0000
1000
0033
0001
0000
2200
0000
0010
3300
1000
0000
,  // measure 47
0220
0000
0001
0330
0100
0000
2002
0000
0010
3003
0001
0000
2200
0000
0010
3300
1000
0000
0022
0000
0100
0033
0001
0000
,  // measure 48
0220
0000
1000
0330
0001
0000
2200
0000
0010
3300
0001
0000
0022
0000
0100
0033
1000
0000
0220
0000
0001
0330
0100
0000
,  // measure 49
2200
0000
0001
3300
1000
0000
0022
0000
0100
0033
1000
0000
0220
0000
0001
0330
1000
0000
2002
0000
0010
3003
0001
0000
,  // measure 50
2200
0000
0001
3300
0100
0000
2020
0000
0001
3030
1000
0000
0202
0000
0010
0303
1000
0000
0022
0000
0100
0033
1000
0000
,  // measure 51
0220
0000
0001
0330
0100
0000
2200
0000
0010
3300
0100
0000
0022
0000
1000
0033
0100
0000
2002
0000
0010
3003
0100
0000
,  // measure 52
0220
0000
0000
0330
0001
0000
1000
0000
0010
0000
0100
0000
0010
0000
1000
0000
0100
0000
0001
0000
0100
0000
0010
0000
,  // measure 53
2200
0000
0000
0000
0000
0000
0000
0000
0000
0000
0000
0000
0000
0000
0000
0000
0000
0000
0000
0000
0000
0000
0000
0000
0000
0000
0000
0000
0000
0000
0000
0000
0011
0000
0000
0000
0000
0000
0000
0000
0000
0000
0000
0000
0000
3000
0000
0000
1301
0000
0000
0000
0000
0000
0000
0000
0000
0000
0000
0000
0000
0000
0000
0000
0110
0000
0000
0000
0000
0000
0000
0000
0000
0000
0000
0000
0000
0000
0000
0000
0110
0000
0000
0000
0000
0000
0000
0000
0000
0000
0000
0000
0000
0000
0000
0000
0110
0000
0000
0000
0000
0000
0000
0000
0000
0000
0000
0000
0000
0000
0000
0000
0000
0000
0000
0000
0000
0000
0000
0000
0000
0000
0000
0000
0000
0000
0000
0000
0011
0000
0000
0000
0000
0000
0000
0000
0000
0000
0000
0000
0000
0000
0000
0000
1010
0000
0000
0000
0000
0000
0000
0000
0000
0000
0000
0000
0000
0000
0000
0000
1100
0000
0000
0000
0000
0000
0000
0000
0000
0000
0000
0000
0000
0000
0000
0000
1100
0000
0000
0000
0000
0000
0000
0000
0000
0000
0000
0000
0000
0000
0000
0000
,  // measure 54
1100
0000
0110
1001
0101
0101
0101
0000
1100
0101
0110
1100
,  // measure 55
2002
0000
3113
0011
0110
1010
2002
0000
3113
1100
0110
0101
,  // measure 56
2020
0000
0000
0000
0000
0000
0000
0000
0000
0000
0000
0000
0000
0000
0000
0000
0000
0000
0000
0000
0000
0000
0000
0000
0000
0000
0000
0000
0000
0000
3030
0000
0110
0000
0000
0000
0000
0000
0000
0000
0000
0000
0000
0000
0000
0000
0000
0000
0001
0000
0000
0000
0000
0000
0000
0000
0000
0000
0000
0000
0000
0000
0000
0000
1010
0000
0000
0000
0000
0000
0000
0000
0000
0000
0000
0000
0000
0000
0000
0000
0100
0000
0000
0000
0000
0000
0000
0000
0000
0000
0000
0000
0000
0000
0000
0000
0001
0000
0000
0000
0000
0000
0000
0000
0000
0000
0000
0000
0000
0000
0000
0000
0010
0000
0000
0000
0000
0000
0000
0000
0000
0000
0000
0000
0000
0000
0000
0000
0100
0000
0000
0000
0000
0000
0000
0000
0000
0000
0000
0000
0000
0000
0000
0000
0010
0000
0000
0000
0000
0000
0000
0000
0000
0000
0000
0000
0000
0000
0000
0000
0001
0000
0000
0000
0000
0000
0000
0000
0000
0000
0000
0000
0000
0000
0000
0000
0100
0000
0000
0000
0000
0000
0000
0000
0000
0000
0000
0000
0000
0000
0000
0000
,  // measure 57
2020
0000
0000
0000
0000
0000
0000
0000
0000
0000
0000
0000
0000
0000
0000
0000
0000
0000
0000
0000
0000
0000
0000
0000
0000
0000
0000
0000
0000
0000
0000
0000
0101
0000
0000
0000
0000
0000
0000
0000
0000
0000
0000
0000
0000
3000
0000
0000
0131
0000
0000
0000
0000
0000
0000
0000
0000
0000
0000
0000
0000
0000
0000
0000
1001
0000
0000
0000
0000
0000
0000
0000
0000
0000
0000
0000
0000
0000
0000
0000
1001
0000
0000
0000
0000
0000
0000
0000
0000
0000
0000
0000
0000
0000
0000
0000
1001
0000
0000
0000
0000
0000
0000
0000
0000
0000
0000
0000
0000
0000
0000
0000
0000
0000
0000
0000
0000
0000
0000
0000
0000
0000
0000
0000
0000
0000
0000
0000
1100
0000
0000
0000
0000
0000
0000
0000
0000
0000
0000
0000
0000
0000
0000
0000
0101
0000
0000
0000
0000
0000
0000
0000
0000
0000
0000
0000
0000
0000
0000
0000
1010
0000
0000
0000
0000
0000
0000
0000
0000
0000
0000
0000
0000
0000
0000
0000
1010
0000
0000
0000
0000
0000
0000
0000
0000
0000
0000
0000
0000
0000
0000
0000
,  // measure 58
1010
0000
0110
1100
0011
0011
0011
0000
0101
0011
0110
1001
,  // measure 59
0022
0000
0000
0000
0000
0000
0000
0000
0000
0000
0000
0000
0000
0000
0000
0000
0000
0000
0000
0000
0000
0000
0000
0000
0000
0000
0000
0000
0000
0000
0000
0000
1133
0000
0000
0000
0000
0000
0000
0000
0000
0000
0000
0000
0000
0000
0000
0000
1001
0000
0000
0000
0000
0000
0000
0000
0000
0000
0000
0000
0000
0000
0000
0000
0110
0000
0000
0000
0000
0000
0000
0000
0000
0000
0000
0000
0000
0000
0000
0000
0101
0000
0000
0000
0000
0000
0000
0000
0000
0000
0000
0000
0000
0000
0000
0000
2020
0000
0000
0000
0000
0000
0000
0000
0000
0000
0000
0000
0000
0000
0000
0000
0000
0000
0000
0000
0000
0000
0000
0000
0000
0000
0000
0000
0000
0000
3030
0000
0100
0000
0000
0000
0000
0000
0000
0000
0000
0000
0000
0000
0000
0000
0000
0000
1001
0000
0000
0000
0000
0000
0000
0000
0000
0000
0000
0000
0000
0000
0000
0000
0101
0000
0000
0000
0000
0000
0000
0000
0000
0000
0000
0000
0000
0000
0000
0000
0210
0000
0000
0000
0000
0000
0000
0000
0000
0000
0000
0000
0000
0000
0000
0000
,  // measure 60
2302
0000
3113
0010
0101
1000
0100
0001
0010
0001
0100
0010
,  // measure 61
2200
0000
0000
0000
0000
0000
0000
0000
0000
0000
0000
0000
0000
0000
0000
0000
0000
0000
0000
0000
0000
0000
0000
0000
0000
0000
0000
0000
0000
0000
0000
0000
0011
0000
0000
0000
0000
0000
0000
0000
0000
0000
0000
0000
0000
3000
0000
0000
1301
0000
0000
0000
0000
0000
0000
0000
0000
0000
0000
0000
0000
0000
0000
0000
0101
0000
0000
0000
0000
0000
0000
0000
0000
0000
0000
0000
0000
0000
0000
0000
0101
0000
0000
0000
0000
0000
0000
0000
0000
0000
0000
0000
0000
0000
0000
0000
0101
0000
0000
0000
0000
0000
0000
0000
0000
0000
0000
0000
0000
0000
0000
0000
0000
0000
0000
0000
0000
0000
0000
0000
0000
0000
0000
0000
0000
0000
0000
0000
0101
0000
0000
0000
0000
0000
0000
0000
0000
0000
0000
0000
0000
0000
0000
0000
0011
0000
0000
0000
0000
0000
0000
0000
0000
0000
0000
0000
0000
0000
0000
0000
0110
0000
0000
0000
0000
0000
0000
0000
0000
0000
0000
0000
0000
0000
0000
0000
0110
0000
0000
0000
0000
0000
0000
0000
0000
0000
0000
0000
0000
0000
0000
0000
,  // measure 62
0110
0000
0101
0110
1010
1010
1010
0000
0101
1010
0110
1001
,  // measure 63
0022
0000
1133
1001
1010
0101
2020
0000
3131
1100
1010
0110
,  // measure 64
2020
0000
3131
1000
0110
0001
0100
0010
1000
0100
0010
0100
,  // measure 65
0202
0000
0000
0000
0000
0000
0000
0000
0000
0000
0000
0000
0000
0000
0000
0000
0000
0000
0000
0000
0000
0000
0000
0000
0000
0000
0000
0000
0000
0000
0000
0000
1010
0000
0000
0000
0000
0000
0000
0000
0000
0000
0000
0000
0000
0003
0000
0000
1301
0000
0000
0000
0000
0000
0000
0000
0000
0000
0000
0000
0000
0000
0000
0000
0011
0000
0000
0000
0000
0000
0000
0000
0000
0000
0000
0000
0000
0000
0000
0000
0011
0000
0000
0000
0000
0000
0000
0000
0000
0000
0000
0000
0000
0000
0000
0000
0011
0000
0000
0000
0000
0000
0000
0000
0000
0000
0000
0000
0000
0000
0000
0000
0000
0000
0000
0000
0000
0000
0000
0000
0000
0000
0000
0000
0000
0000
0000
0000
0101
0000
0000
0000
0000
0000
0000
0000
0000
0000
0000
0000
0000
0000
0000
0000
1010
0000
0000
0000
0000
0000
0000
0000
0000
0000
0000
0000
0000
0000
0000
0000
0110
0000
0000
0000
0000
0000
0000
0000
0000
0000
0000
0000
0000
0000
0000
0000
0110
0000
0000
0000
0000
0000
0000
0000
0000
0000
0000
0000
0000
0000
0000
0000
,  // measure 66
0110
0000
1010
0101
1100
1100
1100
0000
0011
1100
0110
1001
,  // measure 67
2020
0000
0000
0000
0000
0000
0000
0000
0000
0000
0000
0000
0000
0000
0000
0000
0000
0000
0000
0000
0000
0000
0000
0000
0000
0000
0000
0000
0000
0000
0000
0000
3131
0000
0000
0000
0000
0000
0000
0000
0000
0000
0000
0000
0000
0000
0000
0000
1001
0000
0000
0000
0000
0000
0000
0000
0000
0000
0000
0000
0000
0000
0000
0000
0101
0000
0000
0000
0000
0000
0000
0000
0000
0000
0000
0000
0000
0000
0000
0000
0110
0000
0000
0000
0000
0000
0000
0000
0000
0000
0000
0000
0000
0000
0000
0000
2020
0000
0000
0000
0000
0000
0000
0000
0000
0000
0000
0000
0000
0000
0000
0000
0000
0000
0000
0000
0000
0000
0000
0000
0000
0000
0000
0000
0000
0000
3030
0000
0110
0000
0000
0000
0000
0000
0000
0000
0000
0000
0000
0000
0000
0000
0000
0000
1100
0000
0000
0000
0000
0000
0000
0000
0000
0000
0000
0000
0000
0000
0000
0000
0011
0000
0000
0000
0000
0000
0000
0000
0000
0000
0000
0000
0000
0000
0000
0000
0110
0000
0000
0000
0000
0000
0000
0000
0000
0000
0000
0000
0000
0000
0000
0000
,  // measure 68
2020
0001
3130
0001
0100
1000
0001
0100
0001
1000
0010
0100
,  // measure 69
2002
0000
3003
0000
0020
0000
2030
0001
,  // measure 70
3120
0230
2300
3102
,  // measure 71
0023
0000
0230
0001
1320
0000
2030
0000
,  // measure 72
3020
0100
1032
0000
2003
0000
3200
1000
,  // measure 73
0321
2030
3020
0132
,  // measure 74
2003
0000
3002
1000
0123
0000
2030
0000
,  // measure 75
3020
0000
0000
0000
1030
0100
1002
0000
0000
0100
0000
0000
2003
0000
0000
0000
0000
0000
3002
0000
0000
1000
0000
0000
,  // measure 76
0213
0302
0023
1032
,  // measure 77
0203
0000
0302
0100
1023
0000
2030
0000
,  // measure 78
3200
1000
0312
0000
2003
0000
3020
0001
,  // measure 79
1230
0302
2003
3102
,  // measure 80
2003
0000
0000
0000
0000
0000
3200
0000
0000
0000
0000
0000
0321
0000
0000
0000
0001
0100
1032
0000
0000
0100
0000
0000
,  // measure 81
0013
0000
0000
0000
0000
0000
0000
0000
1000
0000
0000
0000
0000
0000
0000
0000
0100
0000
1000
0000
0000
0000
0000
0000
0001
0000
0000
0000
0000
0000
0000
0000
2200
0000
0000
0000
0000
0000
0000
0000
0011
0000
0000
0000
0000
0000
0000
0000
0011
0000
0000
0000
0000
0000
0000
0000
0011
0000
0000
0000
0000
0000
0000
3000
,  // measure 82
1310
0110
0110
0110
0110
0110
0101
1010
,  // measure 83
1010
1010
1010
1010
0110
0011
0011
0011
,  // measure 84
0011
0000
0000
0000
0000
0000
0000
0000
0011
0000
0000
0000
0000
0000
0000
0000
0110
0000
0000
0000
0000
0000
0000
0000
1010
0000
0000
0000
0000
0000
0000
0000
2002
0000
0000
0000
0000
0000
0000
0000
0110
0000
0000
0000
0000
0000
0000
0000
0110
0000
0000
0000
0000
0000
0000
0000
0110
0000
0000
0000
0000
0000
0000
3003
,  // measure 85
1010
1100
1100
1100
1100
1100
0101
0011
,  // measure 86
0011
0011
0011
0011
1001
1100
1100
1100
,  // measure 87
1100
0000
0000
0000
0000
0000
0000
0000
1100
0000
0000
0000
0000
0000
0000
0000
0110
0000
0000
0000
0000
0000
0000
0000
1010
0000
0000
0000
0000
0000
0000
0000
0202
0000
0000
0000
0000
0000
0000
0000
1010
0000
0000
0000
0000
0000
0000
0000
1010
0000
0000
0000
0000
0000
0000
0000
1010
0000
0000
0000
0000
0000
0000
0003
,  // measure 88
0311
1001
1001
1001
1001
1001
0101
0110
,  // measure 89
0110
0110
0110
0110
1001
1010
1010
1010
,  // measure 90
1010
0000
0000
0000
0000
0000
0000
0000
1010
0000
0000
0000
0000
0000
0000
0000
0101
0000
0000
0000
0000
0000
0000
0000
0110
0000
0000
0000
0000
0000
0000
0000
2020
0000
0000
0000
0000
0000
0000
0000
0101
0000
0000
0000
0000
0000
0000
0000
0101
0000
0000
0000
0000
0000
0000
0000
0101
0000
0000
0000
0000
0000
0000
3000
,  // measure 91
1031
0011
0011
0011
0011
0011
1010
1100
,  // measure 92
0022
0000
0000
0000
0000
0000
0000
0000
1100
0000
0000
0000
0000
0000
0000
0000
1100
0000
0000
0000
0000
0000
0000
0000
1100
0000
0000
0000
0000
0000
0000
0003
1031
0000
0000
0000
0000
0000
0000
0000
0000
0000
0000
0000
0000
0000
0000
0000
2002
0000
0000
0000
0000
0000
0000
0000
0100
0000
0000
0000
0000
0000
0000
0000
,  // measure 93
0010
0100
0010
0100
3223
2000
3002
0003
,  // measure 94
1331
0000
0020
0230
0302
2003
3021
0230
,  // measure 95
0302
0203
0320
0030
1100
0000
0020
2030
,  // measure 96
3200
0320
0132
0023
0230
0320
2030
3000
,  // measure 97
0101
0000
2000
3002
0203
0320
1032
0203
,  // measure 98
2302
0000
0200
3323
1032
0023
2032
0000
,  // measure 99
0200
3323
0231
0320
0232
2000
3020
0333
,  // measure 100
0011
0000
0200
0302
2003
3020
1230
0302
,  // measure 101
2003
3020
0230
0300
0110
0000
0020
2030
,  // measure 102
3020
0230
1302
0203
2302
0020
3233
0300
,  // measure 103
1010
0000
0020
2030
3002
0203
0312
0023
,  // measure 104
2230
0000
3320
0032
1203
0320
2232
0300
,  // measure 105
0020
0000
3233
0000
0312
0000
0203
0000
2300
0010
3100
0001
0010
0100
1000
0100
,  // measure 106
0010
0100
1000
0001
0100
0010
0100
0010
1000
0100
0010
0100
1000
0100
0010
0001
,  // measure 107
0100
0010
0100
0001
0010
0100
0010
0100
1000
0010
0100
1000
0100
0010
0100
0001
,  // measure 108
0010
0100
0010
0001
0100
0010
0100
0001
0010
0100
1000
0100
0010
0001
0010
0100
,  // measure 109
0010
0001
0100
0010
0100
0010
0100
0010
1000
0100
0010
0100
0010
0100
0001
0010
,  // measure 110
0100
0010
0001
0100
0010
0100
0010
1000
0100
1000
0100
1000
0010
0100
0010
1000
,  // measure 111
0001
0100
0010
0100
0001
0010
0100
0010
0001
0100
0010
0100
0010
1000
0100
0010
,  // measure 112
0001
0100
0010
0100
0001
0010
0100
0010
0001
0100
0010
1000
0100
0010
0100
0010
,  // measure 113
1000
0100
0010
0100
0010
0100
1000
0010
0100
0010
0100
0010
1000
0100
0010
0100
,  // measure 114
0010
0001
0100
0010
0100
0001
0010
0100
0010
0001
0100
0010
1000
0100
0010
0100
,  // measure 115
0010
1000
0100
1000
0100
1000
0010
0100
0001
0100
1000
0100
0001
0100
1000
0100
,  // measure 116
0001
0100
1000
0100
0010
0100
0010
1000
0010
0001
0010
1000
0010
0001
0010
1000
,  // measure 117
0010
0000
0000
0001
0000
0000
0010
0000
0000
1000
0000
0000
0100
0000
0000
0010
0000
0000
0100
0000
0000
0010
0000
0000
0002
0000
0000
0000
0000
0000
0000
0000
0100
0000
0000
0000
2013
0000
0000
0000
0001
0000
0000
0000
0000
0000
0000
0000
,  // measure 118
3020
0000
1000
0231
0010
0000
2300
0000
0001
3120
1000
0000
,  // measure 119
0032
0000
0010
1023
0100
0000
2030
0000
0010
3201
1000
0000
,  // measure 120
0302
0000
0010
1023
0001
0000
0230
0000
0001
1320
0100
1001
,  // measure 121
0032
0000
0000
0000
0000
0000
0000
0000
0000
0000
0000
0000
0000
0000
0000
0000
0000
0000
0000
0000
0000
0000
0000
0000
0000
0000
0000
0000
0000
0000
0000
0000
1000
0000
0000
0000
0000
0000
0000
0000
0000
0000
0000
0000
0000
0000
0000
0000
0123
0000
0000
0000
0000
0000
0000
0000
0000
0000
0000
0000
0000
0000
0000
0000
0001
0000
0000
0000
0000
0000
0000
0000
0000
0000
0000
0000
0000
0000
0000
0000
1100
0000
0000
0000
0000
0000
0000
0000
0000
0000
0000
0000
0000
0000
0000
0000
0032
0000
0000
0000
0000
0000
0000
0000
0000
0000
0000
0000
0000
0000
0000
0000
0000
0000
0000
0000
0000
0000
0000
0000
0000
0000
0000
0000
0000
0000
0000
0000
1000
0000
0000
0000
0000
0000
0000
0000
0000
0000
0000
0000
0000
0003
0000
0000
0021
0000
0000
0000
0000
0000
0000
0000
0000
0000
0000
0000
0000
0000
0000
0000
0100
0000
0000
0000
0000
0000
0000
0000
0000
0000
0000
0000
0000
0000
0000
0000
0000
0000
0000
0000
0000
0000
0000
0000
0000
0000
0000
0000
0000
0000
0000
0000
,  // measure 122
0032
0000
0010
2013
0100
0000
3200
0000
1000
1320
0001
0000
,  // measure 123
0230
0000
1000
0321
0100
0000
0032
0000
1000
2013
0001
0000
,  // measure 124
3200
0000
0001
1320
0100
0000
0230
0000
1000
0312
0100
0000
,  // measure 125
2003
0000
0000
0000
0000
0000
0000
0000
0000
0000
0000
0000
0000
0000
0000
0000
0000
0000
0000
0000
0000
0000
0000
0000
0000
0000
0000
0000
0000
0000
0000
0000
0010
0000
0000
0000
0000
0000
0000
0000
0000
0000
0000
0000
0000
3000
0000
0000
1020
0000
0000
0000
0000
0000
0000
0000
0000
0000
0000
0000
0000
0000
0000
0000
0100
0000
0000
0000
0000
0000
0000
0000
0000
0000
0000
0000
0000
0000
0000
0000
1001
0000
0000
0000
0000
0000
0000
0000
0000
0000
0000
0000
0000
0000
0000
0000
0230
0000
0000
0000
0000
0000
0000
0000
0000
0000
0000
0000
0000
0000
0000
0000
0000
0000
0000
0000
0000
0000
0000
0000
0000
0000
0000
0000
0000
0000
0000
0000
1000
0000
0000
0000
0000
0000
0000
0000
0000
0000
0000
0000
0000
0000
0000
0000
0321
0000
0000
0000
0000
0000
0000
0000
0000
0000
0000
0000
0000
0000
0000
0000
0100
0000
0000
0000
0000
0000
0000
0000
0000
0000
0000
0000
0000
0000
0000
0000
0000
0000
0000
0000
0000
0000
0000
0000
0000
0000
0000
0000
0000
0000
0000
0000
,  // measure 126
2030
0000
0100
3120
0100
0000
2030
0000
0100
3021
0100
0000
,  // measure 127
0230
0000
0001
1320
0100
0000
0032
0000
1000
0123
1000
0000
,  // measure 128
2030
0000
0010
3021
0100
0000
0230
0000
0001
1320
0100
1001
,  // measure 129
0230
0000
0000
0000
0000
0000
0000
0000
0000
0000
0000
0000
0000
0000
0000
0000
0000
0000
0000
0000
0000
0000
0000
0000
0000
0000
0000
0000
0000
0000
0000
0000
1000
0000
0000
0000
0000
0000
0000
0000
0000
0000
0000
0000
0000
0300
0000
0000
0120
0000
0000
0000
0000
0000
0000
0000
0000
0000
0000
0000
0000
0000
0000
0000
0001
0000
0000
0000
0000
0000
0000
0000
0000
0000
0000
0000
0000
0000
0000
0000
1100
0000
0000
0000
0000
0000
0000
0000
0000
0000
0000
0000
0000
0000
0000
0000
2030
0000
0000
0000
0000
0000
0000
0000
0000
0000
0000
0000
0000
0000
0000
0000
0000
0000
0000
0000
0000
0000
0000
0000
0000
0000
0000
0000
0000
0000
0000
0000
0001
0000
0000
0000
0000
0000
0000
0000
0000
0000
0000
0000
0000
0000
0000
0000
3120
0000
0000
0000
0000
0000
0000
0000
0000
0000
0000
0000
0000
0000
0000
0000
1000
0000
0000
0000
0000
0000
0000
0000
0000
0000
0000
0000
0000
0000
0000
0000
0000
0000
0000
0000
0000
0000
0000
0000
0000
0000
0000
0000
0000
0000
0000
0000
,  // measure 130
0032
0000
0010
1023
0100
0000
0032
0000
1000
0213
0001
0000
,  // measure 131
2300
0000
0010
3021
1000
0000
0032
0000
0010
1023
1000
0000
,  // measure 132
2030
0000
0100
3021
0001
0000
1030
0000
0010
0100
0001
0010
,  // measure 133
0100
0000
1000
0100
0010
0001
1001
0000
0011
1001
0011
0000
,  // measure 134
1100
0000
0110
1010
0011
0011
0011
0000
1010
1100
0110
0110
,  // measure 135
0110
0000
1010
0101
1010
0000
0220
0000
1001
1331
1001
0000
,  // measure 136
2200
0000
0011
3311
0011
0000
0202
0000
1010
1303
0100
0010
,  // measure 137
0001
0010
0100
1000
0100
0010
0202
0000
1010
1313
1010
0000
,  // measure 138
2200
0000
0011
3311
0011
0000
0022
0000
1100
1133
1100
0000
,  // measure 139
1010
0000
0101
1001
0101
0000
2020
0000
0101
3131
0101
0000
,  // measure 140
2002
0000
0110
3113
0110
0000
0220
0000
1001
1331
1001
0000
,  // measure 141
0101
0000
1010
1001
1010
0000
0220
0000
1001
1331
1001
0000
,  // measure 142
2200
0000
0011
3311
0011
0000
0202
0000
1010
1313
1010
0000
,  // measure 143
0011
0000
0110
1001
0110
0000
0022
0000
1100
1133
1100
0000
,  // measure 144
2200
0000
0011
3311
0110
0110
0220
0000
1001
1331
0100
0010
,  // measure 145
0001
0010
0100
1000
0100
0001
0220
0000
1001
1331
1001
0000
,  // measure 146
0202
0000
1010
1313
1010
0000
2020
0000
0101
3131
0101
0000
,  // measure 147
1001
0000
1010
0110
1010
0000
2020
0000
0101
3131
0101
0000
,  // measure 148
2002
0000
0110
3113
0110
0000
0022
0000
1100
1133
1100
0000
,  // measure 149
1001
0000
0000
0000
0000
0000
0000
0000
0000
0000
0000
0000
0000
0000
0000
0000
0000
0000
0000
0000
0000
0000
0000
0000
0000
0000
0000
0000
0000
0000
0000
0000
0000
0000
0000
0000
1000
0000
0000
0000
0000
0000
0000
0000
0000
0000
0000
0000
0200
0000
0000
0000
0000
0000
0000
0000
0000
0000
0000
0000
0000
0000
0000
0000
0000
0000
0000
0000
0000
0000
0000
0000
0000
0000
0000
0000
0000
0000
0000
0000
0320
0000
0000
0000
0000
0000
0000
0000
0000
0000
0000
0000
0000
0000
0000
0000
2032
0000
0000
0000
0000
0000
0000
0000
0000
0000
0000
0000
0000
0000
0000
0000
0000
0000
0000
0000
0000
0000
0000
0000
0000
0000
0000
0000
0000
0000
0000
0000
0000
0000
0000
0000
0000
0000
0000
0000
0000
0000
0000
0000
0000
0000
0000
0000
0020
0000
0000
0000
0000
0000
0000
0000
0000
0000
0000
0000
0000
0000
0000
0000
0000
0000
0000
0000
0000
0000
0000
0000
0000
0000
0000
0000
0000
0000
0000
0000
0000
0000
0000
0000
0000
0000
0000
0000
0000
0000
0000
0000
0000
3003
0000
0000
,  // measure 150
0231
0000
0000
0000
0000
0000
0000
0000
0320
0000
0000
0000
0230
0000
0000
0000
0000
0000
0000
0000
0000
0000
0000
0000
1320
0000
0000
0001
0000
0000
1000
0000
0000
0001
0000
0000
1230
0000
0000
0000
0000
0000
0000
0000
0320
0000
0000
0000
,  // measure 151
0230
0000
0000
0000
0000
0000
0000
0000
0320
0000
0000
0000
1230
0000
0000
0001
0000
0000
1000
0000
0000
0001
0000
0000
1320
0000
0000
0000
0000
0000
0000
0000
1230
0000
0000
0000
0320
0000
0000
0000
0000
0000
0000
0000
0230
0000
0000
0000
,  // measure 152
0322
0000
0100
1000
0133
1000
2020
0000
,  // measure 153
3031
0100
0010
0100
0022
0000
1033
0001
,  // measure 154
0100
0010
2200
0000
3301
0010
0100
1000
,  // measure 155
0202
0000
0010
1000
0313
0100
2002
0000
,  // measure 156
3013
1000
0001
0010
2020
0000
3031
1000
,  // measure 157
0010
0000
0000
0000
0000
0000
0000
0000
0100
0000
0000
0000
0000
0000
0000
0000
0202
0000
0000
0000
0000
0000
0000
0000
0000
0000
0000
0000
0000
0000
0000
0003
0301
0000
0000
0000
0010
0000
0000
0000
0100
0000
0000
0000
1000
0000
0000
0000
0100
0000
0000
0000
0010
0000
0000
0000
0001
0000
0000
0000
0010
0000
0000
0000
,  // measure 158
2200
0000
3310
0001
1100
0010
2002
0000
,  // measure 159
3103
0010
0101
1000
0202
0000
0313
1000
,  // measure 160
0110
0000
0001
0000
2020
0000
0000
0000
3031
0100
0010
0100
1001
0000
0100
0000
,  // measure 161
0202
0000
0313
0100
1001
0010
0220
0000
,  // measure 162
0331
0100
0011
1000
0202
0000
1303
0010
,  // measure 163
1001
0100
2200
0000
3301
0010
2000
0000
,  // measure 164
3100
0010
0100
0001
0010
0100
1000
0100
0010
0100
1000
0001
0100
0010
0100
0010
,  // measure 165
1000
0100
0010
0100
1000
0100
0010
0001
0100
0010
0100
0001
0010
0100
0010
0100
,  // measure 166
1000
0010
0100
1000
0100
0010
0100
0001
0010
0100
0010
0001
0100
0010
0100
0001
,  // measure 167
0010
0100
1000
0100
0010
0001
0010
0100
0010
0001
0100
0010
0100
0010
0100
0010
,  // measure 168
1000
0100
0010
0100
0010
0100
0001
0010
0100
0010
0001
0100
0010
0100
0010
1000
,  // measure 169
0100
1000
0100
1000
0010
0100
0010
1000
0001
0100
0010
0100
0001
0010
0100
0010
,  // measure 170
0001
0100
0010
0100
0010
1000
0100
0010
0001
0100
0010
0100
0001
0010
0100
0010
,  // measure 171
0001
0100
0010
1000
0100
0010
0100
0010
1000
0100
0010
0100
0010
0100
1000
0010
,  // measure 172
0100
0010
0100
0010
1000
0100
0010
0100
0010
0001
0100
0010
0100
0001
0010
0100
,  // measure 173
0010
0001
0100
0010
1000
0100
0010
0100
0010
1000
0100
1000
0100
1000
0010
0100
,  // measure 174
0001
0100
1000
0100
0001
0100
1000
0100
0001
0100
1000
0100
0010
0100
0010
1000
,  // measure 175
0010
0001
0010
1000
0010
0001
0010
1000
0010
0001
0010
1000
0100
0010
0100
0010
,  // measure 176
0001
1000
0100
0010
0100
0010
0001
0100
0010
0100
0001
0010
0100
0010
0001
0100
,  // measure 177
0010
0100
0010
1000
0100
0010
0100
0010
0100
1000
0100
0010
0100
0010
0100
0010
,  // measure 178
0001
0100
0010
0100
0010
1000
0100
0010
0100
1000
0010
0100
0010
1000
0100
0010
,  // measure 179
0100
0010
1000
0100
0010
0100
0010
0100
0010
1000
0100
0010
0100
0001
0010
0001
,  // measure 180
0100
0010
0100
0010
1000
0100
0010
0001
0100
0010
0100
0001
0010
0100
1000
0001
,  // measure 181
0010
0100
1000
0100
0010
0001
0010
0100
1000
0100
0010
0001
0010
0100
1000
0100
,  // measure 182
0010
0001
0100
0010
0100
1000
0100
0010
0100
0001
0010
0100
0010
0001
0100
0010
,  // measure 183
1000
0100
0001
0100
1000
0100
0001
0100
1000
0001
0100
0010
1000
0001
0100
0010
,  // measure 184
0100
0001
0010
0100
1000
0100
0001
0100
1000
0100
0001
0100
1000
0100
0010
0001
,  // measure 185
0010
0100
0010
0001
0010
0100
1000
0100
0010
0001
0010
1000
0010
0001
0010
1000
,  // measure 186
0010
0001
0010
1000
0010
0001
0010
1000
0010
0001
0010
1000
0010
0001
0010
1000
,  // measure 187
0010
0001
1000
0010
0100
0001
0010
0001
0100
0010
0100
0010
1000
0100
0010
0100
,  // measure 188
0010
0001
0100
0010
0100
0001
0010
0001
0100
0010
0100
0010
1000
0100
0010
0100
,  // measure 189
1000
0010
0100
0010
0100
0010
1000
0100
0010
0100
1000
0100
1000
0100
1000
0100
,  // measure 190
1000
0100
1000
0100
1000
0100
1000
0001
0100
0001
0100
0001
0100
0001
0100
0001
,  // measure 191
0100
0001
0100
0010
0100
0010
1000
0100
0010
0100
1000
0100
0010
0100
1000
0100
,  // measure 192
0010
0100
0010
0001
0010
0100
0010
0100
0010
0001
0010
0100
0010
0001
0100
0010
,  // measure 193
0100
0010
1000
0100
0010
0100
0010
0001
0100
0010
0100
0010
1000
0100
0010
0100
,  // measure 194
1000
0100
0010
0100
0010
0001
0100
0010
0100
0001
0010
0100
0010
0100
0001
0010
,  // measure 195
0001
0100
0010
0100
0010
0001
0010
0100
0010
0001
0010
0100
0010
0100
0010
1000
,  // measure 196
0100
1000
0100
1000
0010
0100
0010
1000
0100
0010
0001
0100
0010
0100
0001
0010
,  // measure 197
0100
0010
0001
0100
0010
0100
0001
0010
0001
0010
0001
0010
0001
0100
0010
0100
,  // measure 198
0010
1000
0100
1000
0010
0100
0010
1000
0100
0010
1000
0010
1000
0010
1000
0010
,  // measure 199
0100
0010
1000
0100
0010
0100
0010
0001
0100
0010
0100
0001
0010
0100
0010
0001
,  // measure 200
1000
0001
1000
0001
1000
0010
0100
0010
0100
0010
0100
0010
1000
0001
0100
0010
,  // measure 201
0100
0001
0010
0100
0010
0001
0100
0010
0100
0010
1000
0100
1000
0100
1000
0010
,  // measure 202
0100
0010
1000
0001
0100
0010
0100
0001
0010
0001
0100
0010
0100
0010
0100
0001
,  // measure 203
0010
0100
0010
0001
0010
0100
1000
0100
0010
0001
0010
0100
1000
0100
0010
0001
,  // measure 204
0010
0100
1000
0100
0010
0001
0010
0100
1000
0100
0010
0001
0010
0100
1000
0100
,  // measure 205
0010
0001
0010
0100
2002
0000
3003
0000
0202
0000
0303
0000
2020
0000
3030
0000
,  // measure 206
2002
0000
0000
0000
,  // measure 207
0000
0000
0000
0000
,  // measure 208
3003
0000
0000
0000
;
